Connection failed! <Error: 0x20 0x05>

Использование системы в различных ситуациях, вопросы программирования сценариев.

Модераторы: Bagir, Ivan, Vit, immortal, PAV

Ответить
kos10
Сообщения: 9
Зарегистрирован: Чт сен 13, 2018 10:11 pm
Благодарил (а): 2 раза
Поблагодарили: 0

Connection failed! <Error: 0x20 0x05>

Сообщение kos10 » Вс сен 16, 2018 10:45 am

Привет!
Подскажите, вот такая проблема:
Сервер виснет примерно рас в день. Лечится перезагрузкой, потом опять день работает.

Я полазил и вот все что смог найти из проблем:
Думаю что дело в этом:
1 - в окне start.bat пишет - Connection failed! <Error: 0x20 0x05>

Может быть и в этом, но сомневаюсь
2 - в apache error log записи - [Sat Sep 15 23:10:52.536839 2018] [ssl:warn] [pid 3044:tid 248] AH01906: main-serveur:443:0 server certificate is a CA certificate (BasicConstraints: CA == TRUE !?)
[Sat Sep 15 23:10:52.536839 2018] [ssl:warn] [pid 3044:tid 248] AH01909: main-serveur:443:0 server certificate does NOT include an ID which matches the server name
[Sat Sep 15 23:10:52.661639 2018] [ssl:warn] [pid 3044:tid 248] AH01873: Init: Session Cache is not configured [hint: SSLSessionCache]
[Sat Sep 15 23:10:52.661639 2018] [ssl:warn] [pid 3044:tid 248] AH01906: main-serveur:443:0 server certificate is a CA certificate (BasicConstraints: CA == TRUE !?)
[Sat Sep 15 23:10:52.661639 2018] [ssl:warn] [pid 3044:tid 248] AH01909: main-serveur:443:0 server certificate does NOT include an ID which matches the server name
[Sat Sep 15 23:10:52.802039 2018] [mpm_winnt:notice] [pid 3044:tid 248] AH00354: Child: Starting 64 worker threads.
ffmpeg version N-72383-g7206b94 Copyright (c) 2000-2015 the FFmpeg developers
built with gcc 4.9.2 (GCC)
configuration: --enable-gpl --enable-version3 --disable-w32threads --enable-avisynth --enable-bzlib --enable-fontconfig --enable-frei0r --enable-gnutls --enable-iconv --enable-libass --enable-libbluray --enable-libbs2b --enable-libcaca --enable-libdcadec --enable-libfreetype --enable-libgme --enable-libgsm --enable-libilbc --enable-libmodplug --enable-libmfx --enable-libmp3lame --enable-libopencore-amrnb --enable-libopencore-amrwb --enable-libopenjpeg --enable-libopus --enable-librtmp --enable-libschroedinger --enable-libsoxr --enable-libspeex --enable-libtheora --enable-libtwolame --enable-libvidstab --enable-libvo-aacenc --enable-libvo-amrwbenc --enable-libvorbis --enable-libvpx --enable-libwavpack --enable-libwebp --enable-libx264 --enable-libx265 --enable-libxavs --enable-libxvid --enable-lzma --enable-decklink --enable-zlib
libavutil 54. 26.100 / 54. 26.100
libavcodec 56. 41.100 / 56. 41.100
libavformat 56. 33.101 / 56. 33.101
libavdevice 56. 4.100 / 56. 4.100
libavfilter 5. 16.101 / 5. 16.101
libswscale 3. 1.101 / 3. 1.101
libswresample 1. 1.100 / 1. 1.100
libpostproc 53. 3.100 / 53. 3.100
-timelimit not implemented on this OS
Input #0, rtsp, from 'rtsp://admin:@192.168.5.35:554/channel=1_stream=1.sdp?real_stream':
Metadata:
title : RTSP Session
Duration: N/A, start: 0.083333, bitrate: N/A
Stream #0:0: Video: h264 (Baseline), yuvj420p(pc, bt709), 704x576, 12 fps, 12 tbr, 90k tbn, 180k tbc
[swscaler @ 02d1bf20] deprecated pixel format used, make sure you did set range correctly
Output #0, image2, to 'C:\_majordomo\htdocs/cms/cached/thumb_8afa7a4ecaa41640a08ec52e9a23fd7brtsp192168535554channel1_stream1sdpreal_stream':
Metadata:
title : RTSP Session
encoder : Lavf56.33.101
Stream #0:0: Video: mjpeg, yuvj420p(pc), 1024x750, q=2-31, 200 kb/s, 5 fps, 5 tbn, 5 tbc
Metadata:
encoder : Lavc56.41.100 mjpeg
Stream mapping:
Stream #0:0 -> #0:0 (h264 (native) -> mjpeg (native))
Press [q] to stop, [?] for help
frame= 1 fps=0.0 q=4.3 Lsize=N/A time=00:00:00.20 bitrate=N/A
video:37kB audio:0kB subtitle:0kB other streams:0kB global headers:0kB muxing overhead: unknown

Подскажите, в какую сторону копать чтоб понять в чем проблема....
kos10
Сообщения: 9
Зарегистрирован: Чт сен 13, 2018 10:11 pm
Благодарил (а): 2 раза
Поблагодарили: 0

Re: Connection failed! <Error: 0x20 0x05>

Сообщение kos10 » Вс сен 23, 2018 7:51 pm

Не получается победить. Рас в день сервер намертво виснет. ;(
kos10
Сообщения: 9
Зарегистрирован: Чт сен 13, 2018 10:11 pm
Благодарил (а): 2 раза
Поблагодарили: 0

Re: Connection failed! <Error: 0x20 0x05>

Сообщение kos10 » Вс сен 23, 2018 11:12 pm

Нашел! Был неправильно настоен модуль Connect.
Ответить